» » Various - Classic Rare Hits Of The 70's
opencloudpa
full-dateMP3 2179 mb. | FLAC 1899 mb. | WMA: 1222 mb.
Electronic / Rock / Funk / Pop / Country / Folk / Stage / TV

Various - Classic Rare Hits Of The 70's Album

Various - Classic Rare Hits Of The 70's Album

Performer: Various
Title: Classic Rare Hits Of The 70's
Country: Australia
Catalog Number: CEL 129/3
Label: CEL Entertainment
Style: Pop Rock, Disco, Classic Rock, Country Rock, Soft Rock, Bluegrass, New Wave, Rhythm & Blues, Bubblegum, Soul, Lo-Fi, Modern Classical, Vocal
Rating: 4.2
Votes: 837

Tracklist

1Ellen FoleyWe Belong To The Night5:16
2Uriah HeepFree Me3:34
3Greg Kihn BandJeopardy3:50
4Blue MinkMelting Pot3:47
5Michael Martin MurpheyWildfire4:48
6Middle Of The RoadChirpy Chirpy Cheep Cheep2:58
7Ian HunterOnce Bitten Twice Shy4:45
8Chicory TipSon Of My Father3:10
9RaydioYou Can't Change That3:21
10David EssexHold Me Close3:55
11Mi-SexComputer Games4:01
12The Charlie Daniels BandDevil Went Down To Georgia3:36
13Kenny LogginsWhenever I Call You Friend3:59
14Tony Christie(Is This The Way To) Amarillo3:14
15Mac DavisBaby Don't Get Hooked on Me3:00
16Albert HammondDown By The River3:01
17Eddie MoneyBaby Hold On3:32
18Danyel GérardButterfly3:30
19Esther PhillipsWhat A Difference A Day Makes4:28
20Patrick HernandezBorn To Be Alive6:23
21ChristieYellow River2:44
22The TymesYou Little Trust Maker 2:52
23Starland Vocal BandAfternoon Delight3:13
24Justin HaywardForever Autumn8:01
25ArgentHold Your Head Up6:14
26Eumir DeodatoAlso Sprach Zarathustra5:01
27Looking GlassBrandy (You're A Fine Girl)3:08
28Johnny WakelinBlack Superman3:35
29Dorothy MooreMisty Blue3:06
30Anita WardRing My Bell3:18
31Eric CarmenAll By Myself4:55

Credits

  • Compiled ByLee Wroe Johnson
  • Mastered ByD.A.M.E.

Notes

Mastered by D.A.M.E.
Licensed from BMG Australia Limited, Castle Communications (Australasia) Limited, Sony Music Entertainment (Australia) Limited, Beaver Music, Rajon Entertainment Pty Limited and Universal Music Australia

Barcodes

  • Barcode (Text): 9 311453-71293

Companies

  • Licensed From – BMG Australia Limited
  • Licensed From – Castle Communications
  • Licensed From – Sony Music Entertainment (Australia) Limited
  • Licensed From – Beaver Music
  • Licensed From – Rajon Entertainment Pty Ltd
  • Licensed From – Universal Music Australia
  • Distributed By – CEL Entertainment

Reviews (1)
Bulace
foobar2000 1.3.17 / Dynamic Range Meter 1.1.1
log date: 2018-11-11 16:01:13

--------------------------------------------------------------------------------
Analyzed: Classic Rare Hits Of The 70's (Disc 1)
--------------------------------------------------------------------------------

DR Peak RMS Duration Track
--------------------------------------------------------------------------------
DR10 -1.41 dB -13.55 dB 3:59 01-Whenever I Call You "Friend"
DR8 -2.25 dB -11.98 dB 3:32 02-Baby Hold On
DR15 -0.43 dB -17.39 dB 6:23 03-Born To Be Alive
DR11 -0.54 dB -13.24 dB 3:14 04-(Is This The Way To) Amarillo
DR14 -1.62 dB -16.71 dB 3:50 05-Jeopardy
DR14 -1.36 dB -17.51 dB 3:34 06-Free Me
DR14 -0.66 dB -16.99 dB 3:21 07-You Can't Change That - Raydio
DR12 -0.68 dB -14.69 dB 3:55 08-Hold Me Close
DR9 -2.17 dB -13.93 dB 3:36 09-The Devil Went Down To Georgia
DR11 -1.75 dB -14.59 dB 4:01 10-Computer Games - Mi-Sex
DR11 -1.63 dB -14.86 dB 3:01 11-Down By The River
DR11 -0.70 dB -15.05 dB 3:47 12-Melting Pot
DR10 -0.89 dB -12.91 dB 2:44 13-Yellow River
DR12 -1.53 dB -15.85 dB 4:28 14-What A Difference A Day Makes
DR12 -0.62 dB -15.63 dB 5:01 15-Also Sprach Zarathustra
DR12 -1.37 dB -16.85 dB 3:13 16-Afternoon Delight
--------------------------------------------------------------------------------

Number of tracks: 16
Official DR value: DR12

Samplerate: 44100 Hz
Channels: 2
Bits per sample: 16
Bitrate: 793 kbps
Codec: ALAC
================================================================================

foobar2000 1.3.17 / Dynamic Range Meter 1.1.1
log date: 2018-11-11 16:01:48

--------------------------------------------------------------------------------
Analyzed: Classic Rare Hits Of The 70's (Disc 2)
--------------------------------------------------------------------------------

DR Peak RMS Duration Track
--------------------------------------------------------------------------------
DR10 -1.51 dB -13.49 dB 2:58 01-Chirpy Chirpy Cheep Cheep
DR10 -0.42 dB -14.10 dB 3:30 02-Butterfly
DR12 -1.96 dB -17.98 dB 4:48 03-Wildfire
DR12 -0.65 dB -16.07 dB 8:01 04-Forever Autumn
DR12 -1.28 dB -16.75 dB 3:06 05-Misty Blue
DR17 -1.19 dB -20.48 dB 3:18 06-Ring My Bell
DR10 -1.74 dB -14.38 dB 4:45 07-Once Bitten Twice Shy
DR12 -0.79 dB -16.91 dB 3:08 08-Brandy (You're A Fine Girl)
DR11 -0.82 dB -16.15 dB 4:55 09-All By Myself
DR12 -0.82 dB -16.54 dB 3:00 10-Baby Don't Get Hooked On Me
DR12 -1.87 dB -15.98 dB 3:35 11-Black Superman
DR11 -1.08 dB -14.36 dB 3:10 12-Son Of My Father
DR10 -0.71 dB -13.93 dB 5:16 13-We Belong To The Night
DR11 -1.04 dB -15.85 dB 6:14 14-Hold Your Head Up
DR12 -1.12 dB -15.90 dB 2:52 15-You Little Trust Maker
--------------------------------------------------------------------------------

Number of tracks: 15
Official DR value: DR12

Samplerate: 44100 Hz
Channels: 2
Bits per sample: 16
Bitrate: 826 kbps
Codec: ALAC
================================================================================

2016-2021 © opencloudpa.it
All rights reserved